[电视剧] 庆余年 第二季[迪士尼无广告版][全36集][国语音轨/中文字幕].Joy.of.Life.2.S02.1080p.DSNP.WEB-DL.AAC.2.0.H.265-BlackTV

作者:观棋 时间:24-06-03 阅读数:427人阅读


[电视剧] 庆余年 第二季[迪士尼无广告版][全36集][国语音轨/中文字幕].Joy.of.Life.2.S02.1080p.DSNP.WEB-DL.AAC.2.0.H.265-BlackTV


◎标  题 庆余年 第二季
◎译  名 庆余年2 / Joy of Life 2
◎年  代 2024
◎产  地 中国大陆
◎类  别 剧情 / 古装
◎语  言 汉语普通话
◎IMDb链接 https://www.imdb.com/title/tt27935747/
◎豆瓣链接 https://movie.douban.com/subject/34937650/
◎导  演 孙皓 Hao Sun
◎编  剧 王倦 Juan Wang
       猫腻 Mao Ni
◎演  员 张若昀 Ruoyun Zhang
       李沁 Qin Li
       陈道明 Daoming Chen
       吴刚 Gang Wu
       田雨 Yu Tian
       李小冉 Xiaoran Li
       俞飞鸿 Faye Yu
       袁泉 Quan Yuan
       毛晓彤 Xiaotong Mao
       郭麒麟 Kevin Guo
       宋轶 Yi Song
       辛芷蕾 Zhilei Xin
       宁理 Li Ning
       刘端端 Duanduan Liu
       张昊唯 Haowei Zhang
       付辛博 Xinbo Fu
       高曙光 Shuguang Gao
       赵柯 Karina Zhao
       于洋 Yang Yu
       李强 Qiang Li
       刘桦 Hua Liu
       佟梦实 Mengshi Tong
       郭子凡 Zifan Guo
       金晨 Chen Jin
       王楚然 Churan Wang
       高露 Lu Gao
       王晓晨 Xiaochen Wang
       隋俊波 Junbo Sui
       归亚蕾 Ya-lei Kuei
       余皑磊 Ailei Yu
       毕彦君 Yanjun Bi
       罗二羊 Eryang Luo
       吴幸键 Xingjian Wu
       宣言 Yan Xuan
       王庆祥 Qingxiang Wang
       徐志胜 Zhisheng Xu
       崔志刚 Zhigang Cui
       傅迦 Jia Fu
       姚安濂 Anlian Yao
       秦焰 Yan Qin
       沈晓海 Xiaohai Shen
       王同辉 Tonghui Wang
       冯兵 Bing Feng
       常铖 Cheng Chang
       王建国 Jianguo Wang
       刘宇桥 Yuqiao Liu
       冯恩鹤 Enhe Feng
       赵振廷 Zhenting Zhao
       董可飞 Kefei Dong
       李俊贤 Junxian Li
       崔鹏 Peng Cui
       贾景晖 Jinghui Jia
       王天辰 Tianchen Wang
       代文雯 Wenwen Dai
       王成阳 Cheng-yang Wang
       张弛 Chi Zhang
       左凌峰 Lingfeng Zuo
       刘同 Tong Liu
       张维伊 Weiyi Zhang
       东靖川 Jingchuan Dong
       杨彤 Tong Yang
       孙亦沐 Louis Sun
       于小鸣 Xiaoming Yu
       魏炳桦 Binghua Wei
       李珞桉 Luoan Li
       刘同 Tong Liu

◎简  介
    该剧改编自猫腻同名畅销小说,承接上季,范闲(张若昀 饰)率领使团回归途中,二皇子以费介、范思辙以及滕家遗孤的安危来威胁范闲,逼他向自己俯首称臣,二人的矛盾就此激发。范闲所面对的抱月楼迷局,以及接踵而至的春闱危机,都是二皇子精心给范闲布下的陷阱。                                                                      范闲与林婉儿如愿大婚,紧接着,范闲接手内库,却发现内库负债累累。 范闲拒绝了庆余堂大掌柜的相助,决定靠自己的力量解决内库危机,范闲相约城中众商贾相聚苍山,以售卖“库债”为机筹集了两千多万银两,解决了内库空虚问题。                                                                      悬空寺上,庆帝遭遇三连刺杀,范闲出手相救却导致武功全废。危机四伏,压力陡增,范闲别无选择,他必须以这样的身体下江南,挑战庞大的势力与既定的游戏规则,以求彻底夺回内库。

[电视剧] 庆余年 第二季[迪士尼无广告版][全36集][国语音轨/中文字幕].Joy.of.Life.2.S02.1080p.DSNP.WEB-DL.AAC.2.0.H.265-BlackTV

##### MediaInfo ######
General
Unique ID                                : 217756734400961535112229701837179061481 (0xA3D26BE9E1565107306EA2A7767004E9)
Complete name                            : Joy.of.Life.2.S02E16.1080p.DSNP.WEB-DL.AAC.2.0.H.265-BlackTV.mkv
Duration                                 : 45 min 27 s
Overall bit rate                         : 6 371 kb/s

Video
ID                                       : 1
Format                                   : HEVC
Format/Info                              : High Efficiency Video Coding
Format profile                           : Main 10@L4@Main
Codec ID                                 : V_MPEGH/ISO/HEVC
Duration                                 : 45 min 27 s
Bit rate                                 : 5 985 kb/s
Width                                    : 1 920 pixels
Height                                   : 1 080 pixels
Display aspect ratio                     : 16:9
Frame rate mode                          : Constant
Frame rate                               : 25.000 FPS
Color space                              : YUV
Chroma subsampling                       : 4:2:0
Bit depth                                : 10 bits
Bits/(Pixel*Frame)                       : 0.115
Stream size                              : 1.90 GiB (94%)
Default                                  : Yes
Forced                                   : No
Color range                              : Limited
Color primaries                          : BT.709
Transfer characteristics                 : BT.709
Matrix coefficients                      : BT.709

Audio
ID                                       : 2
Format                                   : E-AC-3
Format/Info                              : Enhanced AC-3
Commercial name                          : Dolby Digital Plus
Codec ID                                 : A_EAC3
Duration                                 : 45 min 27 s
Bit rate mode                            : Constant
Bit rate                                 : 384 kb/s
Channel(s)                               : 2 channels
Channel layout                           : L R
Sampling rate                            : 48.0 kHz
Frame rate                               : 31.250 FPS (1536 SPF)
Compression mode                         : Lossy
Stream size                              : 125 MiB (6%)
Language                                 : Chinese
Service kind                             : Complete Main
Default                                  : Yes
Forced                                   : No

Text #1
ID                                       : 3
Format                                   : UTF-8
Codec ID                                 : S_TEXT/UTF8
Codec ID/Info                            : UTF-8 Plain Text
Duration                                 : 41 min 33 s
Bit rate                                 : 58 b/s
Frame rate                               : 0.306 FPS
Count of elements                        : 763
Stream size                              : 17.8 KiB (0%)
Language                                 : Chinese
Default                                  : Yes
Forced                                   : No

Text #2
ID                                       : 4
Format                                   : UTF-8
Codec ID                                 : S_TEXT/UTF8
Codec ID/Info                            : UTF-8 Plain Text
Duration                                 : 41 min 33 s
Bit rate                                 : 58 b/s
Frame rate                               : 0.306 FPS
Count of elements                        : 763
Stream size                              : 17.8 KiB (0%)
Language                                 : Chinese
Default                                  : Yes
Forced                                   : No


点击图片可查看大图

软字幕无法在截图上展现,HDR版本/杜比视界版本截图会出现颜色异常,请使用支持的设备播放!

[电视剧] 庆余年 第二季[迪士尼无广告版][全36集][国语音轨/中文字幕].Joy.of.Life.2.S02.1080p.DSNP.WEB-DL.AAC.2.0.H.265-BlackTV

[电视剧] 庆余年 第二季[迪士尼无广告版][全36集][国语音轨/中文字幕].Joy.of.Life.2.S02.1080p.DSNP.WEB-DL.AAC.2.0.H.265-BlackTV

[电视剧] 庆余年 第二季[迪士尼无广告版][全36集][国语音轨/中文字幕].Joy.of.Life.2.S02.1080p.DSNP.WEB-DL.AAC.2.0.H.265-BlackTV

[电视剧] 庆余年 第二季[迪士尼无广告版][全36集][国语音轨/中文字幕].Joy.of.Life.2.S02.1080p.DSNP.WEB-DL.AAC.2.0.H.265-BlackTV

[电视剧] 庆余年 第二季[迪士尼无广告版][全36集][国语音轨/中文字幕].Joy.of.Life.2.S02.1080p.DSNP.WEB-DL.AAC.2.0.H.265-BlackTV

[电视剧] 庆余年 第二季[迪士尼无广告版][全36集][国语音轨/中文字幕].Joy.of.Life.2.S02.1080p.DSNP.WEB-DL.AAC.2.0.H.265-BlackTV

部分资源为软字幕,移动端推荐播放器:MxPlayer,nPlayer,infuse ,其他播放器请自行尝试。

部分资源为软字幕,电脑端推荐播放器:PotPlayer,完美解码,KMPLAYER,其他播放器请自行尝试。

下载地址:

夸克云:https://pan.quark.cn/s/74c3864d36f4

UC云:https://drive.uc.cn/s/7b45dd5c61534

VIP专属内容
本站VIP 免费查看
开通会员
开通本站VIP可查看该内容

本资源为赞助会员资源,加入赞助会员畅享全站资源无限制下载!

升级会员时遇到问题的可以复制支付流水到后台提交工单处理!站长不定期处理工单!

BT文件:庆余年 第二季[迪士尼无广告版][全36集][国语音轨中文字幕].Joy.of.Life.2.S02.1080p.DSNP.WEB-DL.AAC.2.0.H.265-BlackTV .7z.torrent

备用BT文件:庆余年 第二季[迪士尼无广告版][全36集][国语音轨中文字幕].Joy.of.Life.2.S02.1080p.DSNP.WEB-DL.AAC.2.0.H.265-BlackTV .7z.torrent


磁力或者BT比较推荐用夸克,xdown(https://xdown.org/)或BitComet下载,也可用115、PikPak、uTorrent或Sharea(http://shareaza.sourceforge.net/)下载。


发表评论

取消回复